Tadap 3 Finale (2019) ULLU Hindi 720p WEB DL

  • Category Movies
  • Type Bollywood
  • Language Hindi
  • Total size 707.7 MB
  • Uploaded By krishh1337
  • Downloads 15558
  • Last checked 4 weeks ago
  • Date uploaded 1 month ago
  • Seeders 164
  • Leechers 58

Infohash : 817ECEABF626D91F4E47CCCB22BA2B4C4EA6690F



Tadap Finale (2019) :
A Love story based in a city of West Bengal trapped in old tradition of our society,
where a girl sacrifices everything for her love. To become a single soul,
both choose a path and soon face the ocean of troubles.
While they are trying to handle things, destiny interferes and a well-settled single parent
enters in the girl's life showing difference between dreams and reality.

Cast
Indraneil Sengupta ( Azeem ), Param Singh ( Mohit ), Shiny Dixit ( Madhvi ),
Rituraj Singh ( Gajendra ), Papiya Sengupta ( Rama )
Director
Deepak Pandey.

Format                      : Matroska
Format version              : Version 4
File size                   : 708 MiB
Duration                    : 1 h 28 min
Overall bit rate            : 1 115 kb/s

Video
ID                          : 1
Format                      : AVC
Format/Info                 : Advanced Video Codec
Format profile              : [email protected]
Format settings             : 1 Ref Frames
Format settings, CABAC      : No
Format settings, ReFrames   : 1 frame
Codec ID                    : V_MPEG4/ISO/AVC
Duration                    : 1 h 28 min
Bit rate                    : 987 kb/s
Width                       : 1 280 pixels
Height                      : 720 pixels
Display aspect ratio        : 16:9
Frame rate mode             : Constant
Frame rate                  : 25.000 FPS
Color space                 : YUV
Chroma subsampling          : 4:2:0
Bit depth                   : 8 bits
Scan type                   : Progressive
Bits/(Pixel*Frame)          : 0.043
Stream size                 : 627 MiB (89%)
Writing library             : x264 core

Audio
ID                          : 2
Format                      : AAC LC
Format/Info                 : Advanced Audio Codec Low Complexity
Codec ID                    : A_AAC-2
Duration                    : 1 h 28 min
Bit rate                    : 126 kb/s
Channel(s)                  : 2 channels
Channel layout              : L R
Sampling rate               : 44.1 kHz
Frame rate                  : 43.066 FPS (1024 SPF)
Compression mode            : Lossy
Delay relative to video     : -25 ms
Stream size                 : 79.7 MiB (11%)
Language                    : Hindi
Default                     : Yes
Forced                      : No

Files:

  • Tadap Finale (2019) ULLU Hindi 720p WEB DL.mkv (707.7 MB)

There are currently no comments. Feel free to leave one :)

Code:

  • udp://tracker.leechers-paradise.org:6969/announce
  • udp://9.rarbg.to:2800/announce
  • http://tracker3.itzmx.com:6961/announce
  • http://tracker1.itzmx.com:8080/announce
  • http://tracker.electro-torrent.pl:80/announce
  • udp://eddie4.nl:6969/announce
  • udp://thetracker.org:80/announce
  • udp://bt.xxx-tracker.com:2710/announce
  • http://retracker.gorcomnet.ru/announce
  • udp://tracker.coppersurfer.tk:6969/announce
  • udp://tracker.opentrackr.org:1337/announce
  • udp://tracker.open-internet.nl:6969/announce
  • udp://tracker.port443.xyz:6969/announce
  • udp://185.225.17.100:1337/announce
  • https://opentracker.xyz:443/announce
  • https://tracker.fastdownload.xyz:443/announce
  • udp://exodus.desync.com:6969/announce
  • udp://tracker.supertracker.net:1337/announce
  • http://tracker3.itzmx.com:8080/announce
  • udp://explodie.org:6969/announce
  • udp://tracker.openbittorrent.com:80/announce
  • udp://tracker.tiny-vps.com:6969/announce
  • UDP://TRACKER.COPPERSURFER.TK:6969/ANNOUNCE