Intercourse (2019) Hindi 720p HOTSHOTS WEB-DL x264 AAC 200MB - Mo...

  • Category Movies
  • Type Bollywood
  • Language Hindi
  • Total size 226.5 MB
  • Uploaded By MovCr
  • Downloads 24028
  • Last checked 3 weeks ago
  • Date uploaded 3 weeks ago
  • Seeders 320
  • Leechers 145

Infohash : 74582A4CE70F469DEF61A7FC59CC80A82CAC3661

https://MovCr.to

Intercourse (2019) Hindi 720p HOTSHOTS WEB-DL x264 AAC 200MB - MovCr



Media Info :
General
Complete name                            : (18+) www.MovCr.to - Intercourse (2019) Hindi 720p HOTSHOTS WEB-DL x264 AAC 200MB - MovCr.mkv
Format                                   : Matroska
Format version                           : Version 4 / Version 2
File size                                : 227 MiB
Duration                                 : 21 min 30 s
Overall bit rate                         : 1 473 kb/s
Movie name                               : www.MovCr.to
Encoded date                             : UTC 2019-12-28 03:51:49
Writing application                      : mkvmerge v41.0.0 ('Smarra') 64-bit
Writing library                          : libebml v1.3.9 + libmatroska v1.5.2

Video
ID                                       : 1
Format                                   : AVC
Format/Info                              : Advanced Video Codec
Format profile                           : [email protected]
Format settings                          : CABAC / 1 Ref Frames
Format settings, CABAC                   : Yes
Format settings, RefFrames               : 1 frame
Format settings, GOP                     : M=1, N=30
Codec ID                                 : V_MPEG4/ISO/AVC
Duration                                 : 21 min 30 s
Bit rate                                 : 1 236 kb/s
Width                                    : 1 280 pixels
Height                                   : 720 pixels
Display aspect ratio                     : 16:9
Frame rate mode                          : Constant
Frame rate                               : 24.000 FPS
Color space                              : YUV
Chroma subsampling                       : 4:2:0
Bit depth                                : 8 bits
Scan type                                : Progressive
Bits/(Pixel*Frame)                       : 0.056
Stream size                              : 190 MiB (84%)
Title                                    : www.MovCr.to
Language                                 : Hindi
Default                                  : Yes
Forced                                   : No
Color range                              : Limited
Color primaries                          : BT.709
Transfer characteristics                 : BT.709
Matrix coefficients                      : BT.709

Audio
ID                                       : 2
Format                                   : AAC
Format/Info                              : Advanced Audio Codec
Format profile                           : LC
Codec ID                                 : A_AAC-2
Duration                                 : 21 min 30 s
Bit rate                                 : 234 kb/s
Channel(s)                               : 2 channels
Channel positions                        : Front: L R
Sampling rate                            : 44.1 kHz
Frame rate                               : 43.066 FPS (1024 SPF)
Compression mode                         : Lossy
Stream size                              : 36.1 MiB (16%)
Title                                    : www.MovCr.to
Language                                 : Hindi
Default                                  : Yes
Forced                                   : No











Files:

  • (18+) www.MovCr.to - Intercourse (2019) Hindi 720p HOTSHOTS WEB-DL x264 AAC 200MB - MovCr.mkv (226.5 MB)

There are currently no comments. Feel free to leave one :)

Code:

  • udp://tracker.leechers-paradise.org:6969/announce
  • udp://tracker.internetwarriors.net:1337/announce
  • udp://tracker.opentrackr.org:1337/announce
  • udp://tracker.coppersurfer.tk:6969/announce
  • udp://tracker.pirateparty.gr:6969/announce
  • udp://tracker.cyberia.is:6969/announce
  • udp://retracker.lanta-net.ru:2710/announce
  • udp://9.rarbg.to:2730/announce
  • udp://9.rarbg.me:2720/announce
  • udp://tracker.tiny-vps.com:6969/announce
  • udp://ipv6.tracker.harry.lu:80/announce
  • udp://tracker.moeking.me:6969/announce
  • udp://exodus.desync.com:6969/announce
  • udp://tracker.torrent.eu.org:451/announce
  • udp://tracker.open-internet.nl:6969/announce
  • udp://open.stealth.si:80/announce
  • udp://open.demonii.si:1337/announce
  • udp://explodie.org:6969/announce