Maleficent: Mistress of Evil (2019) 720p BluRay x264 Esubs [Dual ...

  • Category Movies
  • Type Dubs/Dual Audio
  • Language Hindi
  • Total size 1.2 GB
  • Uploaded By DESIRE123
  • Downloads 23253
  • Last checked 2 weeks ago
  • Date uploaded 2 weeks ago
  • Seeders 374
  • Leechers 132

Maleficent: Mistress of Evil

FantasyAdventureFamily

Maleficent and her goddaughter Aurora begin to question the complex family ties that bind them as they are pulled in different directions by impending nuptials, unexpected allies, and dark new forces at play.

Infohash : 4BAE13248E649419C3CA0FB05FA3270CCA03E63A

Maleficent: Mistress of Evil (2019) 720p BluRay x264 Esubs [Dual Audio] [Hindi (Cleaned) - English] - 1.2 GB


[b]This Movie Encoded by DesireMoVies.Monster


POSTER



INFO


General
Format : Matroska
Format version : Version 4
File size : 1.20 GiB
Duration : 1 h 58 min
Overall bit rate : 1 448 kb/s

Video
ID : 1
Format : AVC
Format/Info : Advanced Video Codec
Format profile : [email protected]
Format settings : CABAC / 8 Ref Frames
Format settings, CABAC : Yes
Format settings, Reference : 8 frames
Codec ID : V_MPEG4/ISO/AVC
Duration : 1 h 58 min
Bit rate : 1 222 kb/s
Width : 1 280 pixels
Height : 536 pixels
Display aspect ratio : 2.40:1
Frame rate mode : Constant
Frame rate : 23.976 (24000/1001) FPS
Color space : YUV
Chroma subsampling : 4:2:0
Bit depth : 8 bits
Scan type : Progressive
Bits/(Pixel*Frame) : 0.074
Default : Yes
Forced : No

Audio #1
ID : 2
Format : AAC LC SBR
Format/Info : Advanced Audio Codec Low Complexity with Spectral Band Replication
Commercial name : HE-AAC
Format settings : NBC
Codec ID : A_AAC-5
Duration : 1 h 58 min
Bit rate : 128 kb/s
Channel(s) : 2 channels
Channel layout : L R
Sampling rate : 48.0 kHz
Frame rate : 23.438 FPS (2048 SPF)
Compression mode : Lossy
Stream size : 109 MiB (9%)
Title : Stereo
Language : Hindi
Default : Yes
Forced : No

Audio #2
ID : 3
Format : AAC LC
Format/Info : Advanced Audio Codec Low Complexity
Codec ID : A_AAC-2
Duration : 1 h 58 min
Bit rate : 90.8 kb/s
Channel(s) : 2 channels
Channel layout : L R
Sampling rate : 48.0 kHz
Frame rate : 46.875 FPS (1024 SPF)
Compression mode : Lossy
Stream size : 77.2 MiB (6%)
Language : English
Default : No
Forced : No

Text #1
ID : 4
Format : UTF-8
Codec ID : S_TEXT/UTF8
Codec ID/Info : UTF-8 Plain Text
Duration : 1 h 52 min
Bit rate : 32 b/s
Count of elements : 1145
Stream size : 27.2 KiB (0%)
Language : English
Default : No
Forced : No

Text #2
ID : 5
Format : VobSub
Muxing mode : zlib
Codec ID : S_VOBSUB
Codec ID/Info : Picture based subtitle format used on DVDs
Duration : 1 h 53 min
Bit rate : 8 472 b/s
Count of elements : 1605
Stream size : 6.85 MiB (1%)
Language : English
Default : Yes
Forced : No

Menu
00:00:00.000 : en:Missing Faeries
00:06:47.907 : en:The Big Day
00:09:11.676 : en:"Don't Ruin My Morning"
00:14:45.551 : en:A Time To Celebrate
00:19:27.833 : en:An Evil Plan
00:23:10.556 : en:Dinner At The Castle
00:33:51.905 : en:Out Of The Sky
00:39:10.265 : en:Carried Away
00:42:19.579 : en:The Dark Fey
00:48:31.992 : en:Nest Of Origin
00:52:44.745 : en:Wedding Invitation
00:57:15.140 : en:A Different Person
00:59:26.146 : en:Underground Secrets
01:05:47.569 : en:The Wedding Day
01:09:31.751 : en:A Curse Revealed
01:19:07.242 : en:A War
01:22:48.547 : en:"Remember Who You Are"
01:29:09.219 : en:Maleficent Arrives
01:35:00.653 : en:Chaos Of War
01:44:26.510 : en:"Will You Give Me Away?"
01:51:06.994 : en:End Credits / "You Can't Stop The Girl"


SCREENSHOT



Keep Visit DesireMoVies.trade For More Exusive MoVies


Files:

Maleficent Mistress of Evil (2019) 720p BluRay x264 Esubs [Dual Audio] [Hindi (Cleaned) - English]
  • MalFiEviL 720p BR DesireMoVies.Monster (1).mkv (1.2 GB)

Comments

Code:

  • udp://9.rarbg.to:2710/announce
  • udp://9.rarbg.me:2710/announce
  • udp://9.rarbg.com:2710/announce
  • udp://eddie4.nl:6969/announce
  • udp://tracker.leechers-paradise.org:6969/announce
  • udp://tracker.ilibr.org:80/announce
  • udp://tracker.zer0day.to:1337/announce
  • udp://tracker.coppersurfer.tk:80/announce
  • udp://tracker.ilibr.org:6969/announce
  • udp://tracker.coppersurfer.tk:6969/announce
  • udp://tracker.opentrackr.org:1337/announce
  • udp://p4p.arenabg.com:1337/announce
  • udp://p4p.arenabg.ch:1337/announce
  • udp://explodie.org:6969/announce
  • udp://tracker.aletorrenty.pl:2710/announce